Antiviral 2012 BRRip XviD AC3 HORiZON ArtSubs

seeders: 16
leechers: 5
Added on Mar 8, 2013 in Movies
Torrent verified. Downloaded 82 times.

Download Fast Safe Anonymous
movies, software, shows...
  • Movie: Antiviral
  • IMDB link: 2099556
  • Detected quality: HDRiP
  • IMDB rating: 6.2 (456 votes)
  • RottenTomatoes: 65% 41%
Available in versions: 1080p720pHDRiPDVDDVDRip
Antiviral 2012 BRRip XviD AC3 HORiZON ArtSubs (Size: 1.36 GB)
  Antiviral.2012.BRRip.XviD.AC3.HORiZON-ArtSubs.avi 1.36 GB
  Antiviral.2012.BRRip.XviD.AC3.HORiZON-ArtSubs.srt 66.63 KB

Description

Title:
Antiviral

Country:
Canada/2012

Language:
English

Subtitle:
English (srt)

Director:
Brandon Cronenberg

Writer:
Brandon Cronenberg (screenplay)

Stars:
Caleb Landry Jones, Lisa Berry, Sarah Gadon

Synopsis:
Syd March is an employee at a clinic that sells injections of live viruses harvested from sick celebrities to obsessed fans. Biological communion - for a price. Syd also supplies illegal samples of these viruses to piracy groups, smuggling them from the clinic in his own body. When he becomes infected with the disease that kills super sensation Hannah Geist, Syd becomes a target for collectors and rabid fans. He must unravel the mystery surrounding her death before he suffers the same fate.

Trivia:
Official Selection Cannes Film Festival 2012

Imdb:
http://www.imdb.com/title/tt2099556

Trailer:
http://www.bandes-annonces.fr/film-2013/bande-annonce-antiviral.html

Media Info:

General
Complete name : Antiviral.2012.BRRip.XviD.AC3.HORiZON-ArtSubs
Format : AVI
Format/Info : Audio Video Interleave
File size : 1.36 GiB
Duration : 1h 43mn
Overall bit rate : 1 890 Kbps
Writing application : FairUse Wizard - http://fairusewizard.com
Writing library : The best and REALLY easy backup tool

Video
ID : 0
Format : MPEG-4 Visual
Format profile : Advanced Simple@L5
Format settings, BVOP : 1
Format settings, QPel : No
Format settings, GMC : No warppoints
Format settings, Matrix : Default (MPEG)
Muxing mode : Packed bitstream
Codec ID : XVID
Codec ID/Hint : XviD
Duration : 1h 43mn
Bit rate : 1 432 Kbps
Width : 688 pixels
Height : 368 pixels
Display aspect ratio : 1.85:1
Frame rate : 25.000 fps
Color space : YUV
Chroma subsampling : 4:2:0
Bit depth : 8 bits
Scan type : Progressive
Compression mode : Lossy
Bits/(Pixel*Frame) : 0.226
Stream size : 1.03 GiB (76%)
Writing library : XviD 1.2.0.dev47 (UTC 2006-11-01)

Audio
ID : 1
Format : AC-3
Format/Info : Audio Coding 3
Mode extension : CM (complete main)
Format settings, Endianness : Big
Codec ID : 2000
Duration : 1h 43mn
Bit rate mode : Constant
Bit rate : 448 Kbps
Channel(s) : 6 channels
Channel positions : Front: L C R, Side: L R, LFE
Sampling rate : 48.0 KHz
Bit depth : 16 bits
Compression mode : Lossy
Stream size : 331 MiB (24%)
Alignment : Split accross interleaves
Interleave, duration : 40 ms (1.00 video frame)
Interleave, preload duration : 500 ms

Sharing Widget


Download torrent
1.36 GB
seeders:16
leechers:5
Antiviral 2012 BRRip XviD AC3 HORiZON ArtSubs

Trackers

tracker name Status checked seeders leechers downloads
udp://tracker.coppersurfer.tk:6969/announce
outdated 31 Mar 2013 - - -
udp://tracker.istole.it:80/announce
outdated 31 Mar 2013 - - -
udp://tracker.openbittorrent.com:80/announce
outdated 31 Mar 2013 - - -
udp://tracker.publicbt.com:80/announce
outdated 31 Mar 2013 - - -
http://exodus.desync.com:6969/announce
blocked 31 Mar 2013 - - -
udp://fr33dom.h33t.com:3310/announce
deleted 31 Mar 2013 - - -
udp://fr33domtracker.h33t.com:3310/announce
deleted 31 Mar 2013 - - -
udp://ipv4.tracker.harry.lu:80/announce
pending 31 Mar 2013 14 5 10
udp://11.rarbg.com:80/announce
private 31 Mar 2013 16 5 10
ĀµTorrent compatible trackers list

Locations

name
ThePirateBay
Torrent hash: D39DE512AC8C8F454BFE84D6CEDCCB26632EF82D

All Comments

audio
0/10
video
0/10
please, leave only comments related to that torrent
or sign-in

User Opinions

Report a bug