Mission Impossible 4 Ghost Protocol (2011) DVDRip XviD-MAXSPEED

seeders: 343
leechers: 52
Added on Mar 30, 2012 by piratepedia649993 in Movies
Torrent verified. Downloaded 10 times.

Download Fast Safe Anonymous
movies, software, shows...
Mission Impossible 4 Ghost Protocol (2011) DVDRip XviD-MAXSPEED (Size: 1.3 GB)
  Mission Impossible 4 Ghost Protocol (2011) DVDRip XviD-MAXSPEED www.torentz.3xforum.ro.avi 1.3 GB
  sample.avi 3.18 MB
  screencaps.jpeg 528.17 KB
  Mission Impossible 4 Ghost Protocol (2011) DVDRip XviD-MAXSPEED.nfo 2.69 KB
  Torrent downloaded from Demonoid.me.txt 46 bytes
  Torrent downloaded from Extratorrent.com.txt 40 bytes
  Torrent downloaded from Rarbg.com.txt 33 bytes
  Torrent downloaded from h33t.com.txt 32 bytes

Description

http://www.torentz.3xforum.ro/post/2663/1/Mission_Impossible_4_Ghost_Protocol_2011_DVDRip_XviD-MAXSPEED/
.
image
.
Screens:
.
image
image
image
image
.
Alternative:
.
http://www.postimg.com/image/64000/photo-63847.jpg
http://www.postimg.com/image/64000/photo-63848.jpg
http://www.postimg.com/image/64000/photo-63849.jpg
http://www.postimg.com/image/64000/photo-63850.jpg
.
ScreenCaps:
.
image
.
Mission Impossible 4 Ghost Protocol (2011) DVDRip XviD-MAXSPEED
Format : AVI
Format/Info : Audio Video Interleave
Format profile : OpenDML
File size : 1.30 GiB
Duration : 2h 12mn
Overall bit rate : 1 398 Kbps
Writing application : VirtualDubMod 1.5.10.2 (build 2542/release)
Writing library : VirtualDubMod build 2542/release
Original source form : MAX TORRENTZ
Copyright : SIGISMUNT
.
Video
ID : 0
Format : MPEG-4 Visual
Format profile : AdvancedSimple@L5
Format settings, BVOP : Yes
Format settings, QPel : No
Format settings, GMC : No warppoints
Format settings, Matrix : Default (MPEG)
Codec ID : XVID
Codec ID/Hint : XviD
Duration : 2h 12mn
Bit rate : 1 009 Kbps
Width : 640 pixels
Height : 272 pixels
Display aspect ratio : 2.35:1
Frame rate : 23.976 fps
Resolution : 24 bits
Colorimetry : 4:2:0
Scan type : Progressive
Bits/(Pixel*Frame) : 0.242
Stream size : 959 MiB (72%)
Writing library : XviD 64
.
Audio
ID : 1
Format : AC-3
Format/Info : Audio Coding 3
Codec ID : 2000
Duration : 2h 12mn
Bit rate mode : Constant
Bit rate : 384 Kbps
Channel(s) : 6 channels
Channel positions : Front: L C R, Surround: L R, LFE
Sampling rate : 48.0 KHz
Stream size : 365 MiB (27%)
Alignment : Aligned on interleaves
Interleave, duration : 64 ms (1.53 video frames)
Interleave, preload duration : 192 ms
.
Source: DVD (perfect a/v/sync quality,sample included,hardcoded english
subs for few original foreign parts)
This torrent is not seedbox supported,please seed it to the MAX
.
Note: We need anything you can offer as early releases,seedboxes,links,accounts,etc
please contact us on piratepedia[@]msn/gmail.com or our website torentz 3xforum ro
.
How To Get Your Maxspeed (uTorrent)
.
Torrent Client - Preferences - Bandwidth - Number of connections - Set aprox. 500 for each 
Torrent Client - Preferences - BiTorrent - Protocol Encryption - Forced
Bandwidth Allocation - High (Set download/upload limit - Unlimited)
Stop Other Active Torrents - Start downloading and wait for connections.
Enjoy and Seed for at least 1:1 ratio. Don't forget to say thanks/leave reviews.
Before downloading you should check/google search sample "release name""sample".
Greets to all actual/future p2p/scene QUALITY groups and affiliate websites.
Don't trust IMDb robot or bad ratings,always watch some trailers first.
Ignore stupid comments/fake/mislabeled/no-DVDrips/CAM/TS/RAR uploads.
Please spread this release/torrent to your friends/forums/etc.
If you need translation subs visit some subtitles sites.
Report if you see online streaming or other spam links.
Recommended movie player VLC PLAYER.

Related Torrents

torrent name size files age seed leech

Sharing Widget


Download torrent
1.3 GB
seeders:343
leechers:52
Mission Impossible 4 Ghost Protocol (2011) DVDRip XviD-MAXSPEED

Trackers

tracker name Status checked seeders leechers downloads
udp://tracker.publicbt.com:80/announce
active 17 May 2014 343 45 10
udp://tracker.openbittorrent.com:80/announce
active 17 May 2014 322 52 10
udp://tracker.istole.it:80/announce
deleted 28 Feb 2014 - - -
udp://fr33domtracker.h33t.com:3310/announce
deleted 11 Sep 2013 - - -
udp://tracker.beeimg.com:6969/announce
pending 14 Dec 2013 45 7 399
ĀµTorrent compatible trackers list

Locations

name author
KickassTorrents piratepedia
Torrent hash: EA760EE4BE2EA8B697480B94645AB879A394CC87

Top Comments

155
billpao1588 • 31 Mar 2012, 14:42
torrent downloaded
audio: 10video: 10
When I see piratepedia649993 I don't need to see the comments .... I downloaded with blind eyes Also good print and movie...
reply
89
Rockster0014354 • 31 Mar 2012, 14:52
torrent downloaded
I'm exactly the same, blind trust, never disappointed!
You can never go wrong with Piratepedia.
4
WorkinBrads57178 • 02 Apr 2012, 02:03
torrent downloaded
audio: 9video: 9
great quality thanks, if you are waiting for the BRrip then just wait for it... dont comment here saying it, the comments are for torrent quality... they are not a diary, thankyou

All Comments

audio
9/10
video
9/10
please, leave only comments related to that torrent
or sign-in
0
ayoubrezk59 • 23 May 2014, 07:02
torrent downloaded
Show comment
not goood audio and video
0
Gepression12401 • 29 April 2014, 00:35
torrent downloaded
Show comment
audio: 10video: 9
Thanks
0
DarkRain.6327 • 25 April 2014, 03:10
torrent downloaded
Show comment
audio: 9video: 9
0
bflat520 • 13 April 2014, 15:56
torrent downloaded
Show comment
audio: 9video: 9
thanks
0
TetrapsiFios1814 • 19 March 2014, 01:10
torrent downloaded
Show comment
audio: 9video: 9
Promising but not such a good movie.
Just descent time killing action film.
Quality was good.
0
MisSleepsAlot2430 • 14 March 2014, 22:56
torrent downloaded
Show comment
audio: 9video: 9
Thank you!
0
anonymous • 22 February 2014, 15:06 Show comment
thank u very much
0
Biohazard848 • 24 January 2014, 09:23
torrent downloaded
Show comment
thx
0
cesseych91 • 21 January 2014, 19:06 Show comment
audio: 9video: 9
thank you!
0
mrgis20112037 • 24 December 2013, 09:15 Show comment
audio: 9video: 9
thanx
Show More

User Opinions

heldens31288, toxictoadz1243, godslinux975, beanhead69751, MaxRider669, spawdet607, martinowp565, paradise30391, millsx155, itHappens96 ... And 4269 more
Mr.Brown379, mouse22326, teaharis191, omegabruh177, zz27131, MARIUS695, robertharker83, Kirkincho34, jlar6732, alfa_0mega21 ... And 176 more

Latest News

--> --> -->

Latest Searches

-->
Report a bug