Nasha 2013 Hindi Movies PDVDRip XviD Best Quality New Source with Sample ~ ☻rDX☻

seeders: 111
leechers: 41
Added on Aug 18, 2013 by teamrdx2030 in Movies > Bollywood
Torrent verified. Downloaded 1,111 times.

Download Fast Safe Anonymous
movies, software, shows...
Nasha 2013 Hindi Movies PDVDRip XviD Best Quality New Source with Sample ~ ☻rDX☻ (Size: 707.11 MB)
  Nasha 2013 Hindi Movies PDVDRip XviD Best Quality New Source ~ ☻rDX☻.avi 676.05 MB
  Sample ~ Nasha 2013 Hindi Movies PDVDRip XviD Best Quality New Source ~ ☻rDX☻.avi 31.06 MB

Description

image

Nasha 2013 Hindi Movies PDVDRip XviD Best Quality New Source with Sample ~ ☻rDX☻

Screen Shots :

http://myimghosting.serveftp.com/13/Nasha.html

http://myimghost.cwahi.net/Nasha.html


image

image

image

image

Format : AVI
Format/Info : Audio Video Interleave
File size : 676 MiB
Duration : 1h 53mn
Overall bit rate : 831 Kbps

Video
ID : 0
Format : MPEG-4 Visual
Format profile : Advanced Simple@L5
Format settings, BVOP : 2
Format settings, QPel : No
Format settings, GMC : No warppoints
Format settings, Matrix : Default (H.263)
Codec ID : XVID
Codec ID/Hint : XviD
Duration : 1h 53mn
Bit rate : 760 Kbps
Width : 640 pixels
Height : 256 pixels
Display aspect ratio : 2.500
Frame rate : 29.970 fps
Color space : YUV
Chroma subsampling : 4:2:0
Bit depth : 8 bits
Scan type : Progressive
Compression mode : Lossy
Bits/(Pixel*Frame) : 0.155
Stream size : 618 MiB (91%)
Writing library : XviD 1.2.1 (UTC 2008-12-04)

Audio
ID : 1
Format : MPEG Audio
Format version : Version 2
Format profile : Layer 3
Mode : Joint stereo
Mode extension : MS Stereo
Codec ID : 55
Codec ID/Hint : MP3
Duration : 1h 53mn
Bit rate mode : Constant
Bit rate : 64.0 Kbps
Channel(s) : 2 channels
Sampling rate : 24.0 KHz
Compression mode : Lossy
Stream size : 52.0 MiB (8%)
Alignment : Aligned on interleaves
Interleave, duration : 133 ms (4.00 video frames)
Interleave, preload duration : 216 ms
Title : nasha T80 2_0ch 192Kbps DELAY 0ms
Writing library : LAME3.98r
Encoding settings : -m j -V 4 -q 2 -lowpass 11 -b 64

Sharing Widget


Download torrent
707.11 MB
seeders:111
leechers:41
Nasha 2013 Hindi Movies PDVDRip XviD Best Quality New Source with Sample ~ ☻rDX☻

Trackers

tracker name Status checked seeders leechers downloads
udp://tracker.publicbt.com:80/announce
active 26 Nov 2013 107 39 10
udp://tracker.openbittorrent.com:80/announce
active 26 Nov 2013 79 27 10
http://exodus.desync.com/announce
outdated 20 Oct 2013 - - -
udp://tracker.istole.it:80/announce
outdated 05 Oct 2013 - - -
udp://tracker.seedceo.com:2710/announce
blocked 08 Sep 2013 - - -
udp://fr33dom.h33t.com:3310/announce
deleted 23 Sep 2013 - - -
udp://fr33domtracker.h33t.com:3310/announce
deleted 23 Sep 2013 - - -
udp://9.rarbg.com:2710/announce
pending 26 Nov 2013 111 41 1111
udp://10.rarbg.me:80/announce
pending 26 Nov 2013 107 39 10
udp://12.rarbg.me:80/announce
pending 26 Nov 2013 118 50 10
µTorrent compatible trackers list

Locations

name author
KickassTorrents teamrdx
Torrent hash: EFDF645CCCF3E438DBFD3102B943010AC283E718

All Comments

Comment as a guest or sign-in

audio
8/10
video
8/10
please, leave only comments related to that torrent
0
ICasablancas162 • 09 October 2013, 19:12  
torrent downloaded
 Show comment
great
0
anonymous • 28 September 2013, 05:10  Show comment
hwz d print?
0
!Raj^1303 • 20 September 2013, 13:57  
torrent downloaded
 Show comment
a/v 7/8
0
Vats224423 • 19 September 2013, 09:36  
torrent downloaded
 Show comment
nice share
0
amolprad444 • 15 September 2013, 18:49  
torrent downloaded
 Show comment
nice movie
0
amolprad444 • 15 September 2013, 18:49  
torrent downloaded
 Show comment
audio: 9video: 9
0
zankar860 • 11 September 2013, 09:58  
torrent downloaded
 Show comment
audio: 8video: 8
Thx,,..
0
gurudatta145279 • 06 September 2013, 16:44  Show comment
plz plz plz plz B A Pass
Show More

User Opinions

!Raj^1303, zankar860, Riche_ron646, sumitsonai624, zaibee491, amolprad444, Vats224423, kasunyash235, mau777110, gpf62 ... And 34 more
don466717, Deap582, cliff1093214, singuy54683, stupidlooserboy48, hyousaf48, abhinavcrazy42, Raheman28, RedaXe1228, abhishek0065
Report a bug