Planes 2013 CAM XViD UNiQUE

seeders: 1561
leechers: 288
Added on Aug 24, 2013 by darkfireevil108202 in Movies
Torrent verified. Downloaded 125,210 times.

Download Fast Safe Anonymous
movies, software, shows...
Cast: Carlos Alazraqui, Dane Cook and others
Planes 2013 CAM XViD UNiQUE (Size: 700.42 MB)
  Planes.avi 695.8 MB
  Torrent Downloaded From ExtraTorrent.com.txt 339 bytes
  sample.avi 4.62 MB

Description

image


http://www.imdb.com/title/tt1691917/


Dusty Crophopper is a little cropduster plane with a fear of heights and a crazy dream of being a racer. While his friends need convincing, Dusty gets the training he needs from Skipper, a veteran fighter, and qualifies for the Wings Across the World race. In the event, Dusty finds competitors who soon learn that there is something special about this underdog as he is tested to his physical and emotional limits. In doing so, Dusty soon finds enemies, and more importantly friends, who are inspired by his dream. In the face of all obstacles, the winner of this air race will be anyone's guess.



Director:
Klay Hall

Writers:
Jeffrey M. Howard (screenplay), John Lasseter (story)

Stars:
Carlos Alazraqui, Dane Cook, Stacy Keach

Genres:
Animation | Adventure | Comedy | Family

Country:
USA

Language:
English | Spanish




Format : AVI
Format/Info : Audio Video Interleave
File size : 696 MiB
Duration : 1h 22mn
Overall bit rate : 1 174 Kbps
Writing application : VirtualDubMod 1.5.10.2 (build 2540/release)
Writing library : VirtualDubMod build 2540/release

Video
ID : 0
Format : MPEG-4 Visual
Format profile : Advanced Simple@L5
Format settings, BVOP : 2
Format settings, QPel : No
Format settings, GMC : No warppoints
Format settings, Matrix : Default (H.263)
Muxing mode : Packed bitstream
Codec ID : XVID
Codec ID/Hint : XviD
Duration : 1h 22mn
Bit rate : 1 040 Kbps
Width : 720 pixels
Height : 304 pixels
Display aspect ratio : 2.35:1
Frame rate : 16.639 fps
Color space : YUV
Chroma subsampling : 4:2:0
Bit depth : 8 bits
Scan type : Progressive
Compression mode : Lossy
Bits/(Pixel*Frame) : 0.286
Stream size : 616 MiB (89%)
Writing library : XviD 64

Audio
ID : 1
Format : MPEG Audio
Format version : Version 2
Format profile : Layer 3
Codec ID : 55
Codec ID/Hint : MP3
Duration : 1h 22mn
Bit rate mode : Constant
Bit rate : 128 Kbps
Channel(s) : 2 channels
Sampling rate : 24.0 KHz
Compression mode : Lossy
Stream size : 75.7 MiB (11%)
Alignment : Split accross interleaves
Interleave, duration : 60 ms (1.00 video frame)
Interleave, preload duration : 500 ms
Writing library : LAME3.99

Source Used LATiNO / BrYaNLaMeR - Thanks :bow:


image image

image

Related Torrents

torrent name size files age seed leech

Sharing Widget


Download torrent
700.42 MB
seeders:1561
leechers:288
Planes 2013 CAM XViD UNiQUE

Trackers

tracker name Status checked seeders leechers downloads
udp://open.demonii.com:1337/announce
active 30 Oct 2013 1561 288 4765
udp://tracker.publicbt.com:80/announce
active 30 Oct 2013 1165 242 10
udp://tracker.openbittorrent.com:80/announce
active 30 Oct 2013 1056 174 10
udp://tracker.istole.it:80/announce
outdated 22 Oct 2013 - - -
udp://fr33dom.h33t.com:3310/announce
deleted 19 Oct 2013 - - -
udp://9.rarbg.me:2710/announce
pending 30 Oct 2013 781 224 125210
udp://ipv4.tracker.harry.lu:80/announce
pending 30 Oct 2013 1432 280 10
udp://9.rarbg.com:2710/announce
pending 30 Oct 2013 781 224 125210
udp://12.rarbg.me:80/announce
pending 30 Oct 2013 1432 280 10
udp://coppersurfer.tk:6969/announce
pending 22 Oct 2013 225 64 1
ĀµTorrent compatible trackers list

Locations

name author
KickassTorrents darkfireevil
Torrent hash: BF3FCBCEBC1CAB330EE6E79C029E191850B7BE88

Top Comments

4
space_monkey3757 • 25 Aug 2013, 08:02  
torrent downloaded
audio: 3video: 6
don't be in too much of a rush to download this
It really is a great effort and the video is pretty good for a cam copy
BUT the audio is often difficult to make out what is being said
thanks to whoever actually made this for trying
Video:6 Audio:3

All Comments

Comment as a guest or sign-in

audio
3/10
video
5/10
please, leave only comments related to that torrent
0
anonymous • 18 November 2013, 01:30  Show comment
Fuzzy video. Not worth the download. hunt down a clear copy.
0
dsbportal801 • 16 November 2013, 18:10  
torrent downloaded
 Show comment
audio: 5video: 3
cam????
0
blanquita13753 • 31 October 2013, 01:09  
torrent downloaded
 Show comment
audio: 2video: 4
0
slaywee464 • 29 October 2013, 17:28  
torrent downloaded
 Show comment
audio: 1video: 1
aweful
0
moonlightpixxie2344 • 27 October 2013, 13:27  Show comment
audio: 3video: 4
0
anonymous • 27 October 2013, 03:23  Show comment
is it worth downloading? should i try? i am a 13 yr old kid. :)
0
fletch8413 • 25 October 2013, 01:34  
torrent downloaded
 Show comment
audio: 1video: 5
Audio is horrible, only watched 6 mins before I got irritated and shut it off. I'll just wait til a rip comes out. Thanks anyway uploader.
Show More

User Opinions

gaala2140, VonDutch691506, Double-D881034, topprofile765, skinninja722, Panwolf512, dieseldoc504, dilipkk419, njasak105, spona20 ... And 228 more
bob19901610, tw1zt1d4201332, AssKicker691010, Warpuppet841, 1ltLeutenant787, mr.wrong74549, slaywee464, SIKZONER281, kbtb279, UFOludek8787196 ... And 63 more
Report a bug