Shuddh Desi Romance 2013 Hindi Movies HDSCamRip XviD New Source +Sample ~ ☻rDX☻

seeders: 230
leechers: 44
Added on Sep 7, 2013 by teamrdx2030 in Movies > Bollywood
Torrent verified. Downloaded 254 times.

Download Fast Safe Anonymous
movies, software, shows...
Shuddh Desi Romance 2013 Hindi Movies HDSCamRip XviD New Source +Sample ~ ☻rDX☻ (Size: 706.7 MB)
  Shuddh Desi Romance 2013 Hindi Movies HDSCamRip XviD New Source ~ ☻rDX☻.avi 681.57 MB
  Sample ~ Shuddh Desi Romance 2013 Hindi Movies HDSCamRip XviD New Source ~ ☻rDX☻.avi 25.13 MB

Description

image

Shuddh Desi Romance 2013 Hindi Movies HDSCamRip XviD New Source +Sample ~ ☻rDX☻

Screen Shots :

http://myimghosting.serveftp.com/13/ShuddhDesiRomance.html

http://myimghost.cwahi.net/ShuddhDesiRomance.html


All rDX torrents are Seeding From the 1Gbps Seedbox 24X7

image

image

image

Format : AVI
Format/Info : Audio Video Interleave
File size : 682 MiB
Duration : 2h 10mn
Overall bit rate : 728 Kbps
Writing library : MPlayer

Video
ID : 0
Format : MPEG-4 Visual
Format profile : Advanced Simple@L5
Format settings, BVOP : 2
Format settings, QPel : No
Format settings, GMC : No warppoints
Format settings, Matrix : Default (H.263)
Codec ID : XVID
Codec ID/Hint : XviD
Duration : 2h 10mn
Bit rate : 594 Kbps
Width : 576 pixels
Height : 208 pixels
Display aspect ratio : 2.769
Frame rate : 25.000 fps
Color space : YUV
Chroma subsampling : 4:2:0
Bit depth : 8 bits
Scan type : Progressive
Compression mode : Lossy
Bits/(Pixel*Frame) : 0.198
Stream size : 557 MiB (82%)
Writing library : XviD 1.2.1 (UTC 2008-12-04)

Audio
ID : 1
Format : AC-3
Format/Info : Audio Coding 3
Mode extension : CM (complete main)
Format settings, Endianness : Big
Codec ID : 2000
Duration : 2h 10mn
Bit rate mode : Constant
Bit rate : 128 Kbps
Channel(s) : 2 channels
Channel positions : Front: L R
Sampling rate : 48.0 KHz
Bit depth : 16 bits
Compression mode : Lossy
Stream size : 120 MiB (18%)
Alignment : Split accross interleaves
Interleave, duration : 500 ms (12.50 video frames)
Interleave, preload duration : 500 ms

Related Torrents

torrent name size files age seed leech

Sharing Widget


Download torrent
706.7 MB
seeders:230
leechers:44
Shuddh Desi Romance 2013 Hindi Movies HDSCamRip XviD New Source +Sample ~ ☻rDX☻

Trackers

tracker name Status checked seeders leechers downloads
udp://tracker.publicbt.com:80/announce
active 14 Nov 2013 192 32 10
udp://tracker.openbittorrent.com:80/announce
active 14 Nov 2013 143 33 10
udp://tracker.istole.it:80/announce
active 12 Nov 2013 256 46 10
http://exodus.desync.com/announce
outdated 25 Sep 2013 - - -
udp://tracker.ccc.de:80/announce
outdated 25 Sep 2013 - - -
udp://fr33dom.h33t.com:3310/announce
deleted 25 Sep 2013 - - -
udp://fr33domtracker.h33t.com:3310/announce
deleted 25 Sep 2013 - - -
udp://9.rarbg.com:2710/announce
pending 14 Nov 2013 230 44 190
udp://coppersurfer.tk:6969/announce
pending 14 Nov 2013 181 38 254
µTorrent compatible trackers list

Locations

name author
KickassTorrents teamrdx
Torrent hash: 43D2CF8D6D987836029C34B8A3FA26CCEB7D3AF2

Top Comments

4
DC816 • 08 Sep 2013, 07:08
audio: 7video: 6
Print is Shakky and Screen is bit Cut.... Movie is cut by 25 mins or so... Last 15-17 minutes is repeat.... Should wait for the better print...

All Comments

Comment as a guest or sign-in

audio
4/10
video
5/10
please, leave only comments related to that torrent
0
FroZen.GhoSt4004 • 31 October 2013, 14:04  
torrent downloaded
 Show comment
audio: 5video: 5
So So
0
SuperMessi7630 • 31 October 2013, 12:26  
torrent downloaded
 Show comment
audio: 5video: 6
THANKS NiCE 1
0
anonymous • 10 October 2013, 11:46  Show comment
plz upload chennai express dvd ddr plzzz waiting here
0
anonymous • 29 September 2013, 06:22  Show comment
nice
0
koprivaqi1 • 28 September 2013, 20:21  Show comment
plz.. there is no eng.sub?
0
noori5004706 • 18 September 2013, 05:55  
torrent downloaded
 Show comment
audio: 5video: 5
0
da_ultim8_f3k20 • 15 September 2013, 04:28  
torrent downloaded
 Show comment
audio: 5video: 5
0
Daawar72 • 13 September 2013, 16:45  
torrent downloaded
 Show comment
Aala
0
anonymous • 13 September 2013, 14:19  Show comment
wait for DDR
Show More

User Opinions

aceg153277, aliasne02810, ramacole2057, asad_kat1114, Hellrocker47603, nikkuboy294, suel000227, syedatif_619139, vyomb105, rock69roll60 ... And 45 more
kion1793, njpanchal604, Dev2000324, sujay.ryder278, princessraj245, Tuddie115, hb3895692, tasawar.joyia72, rahulk8116, dip778 ... And 26 more
Report a bug